<?xml version="1.0" standalone="no"?>
<!DOCTYPE svg PUBLIC "-//W3C//DTD SVG 1.1//EN" "http://www.w3.org/Graphics/SVG/1.1/DTD/svg11.dtd" >
<svg xmlns="http://www.w3.org/2000/svg">
<metadata>Generated by IcoMoon</metadata>
<defs>
<font id="Pages-icon" horiz-adv-x="1024">
<font-face units-per-em="1024" ascent="870.4" descent="-153.6" />
<missing-glyph horiz-adv-x="1024" />
<glyph unicode="&#x20;" d="" horiz-adv-x="512" />
<glyph unicode="&#xe600;" d="M475.429 658.285c-181.76 0-329.143-147.383-329.143-329.143 0-181.687 147.383-329.143 329.143-329.143 181.687 0 329.143 147.456 329.143 329.143 0 181.76-147.456 329.143-329.143 329.143zM475.429 146.285c-101.010 0-182.857 81.92-182.857 182.857 0 101.010 81.847 182.857 182.857 182.857s182.857-81.847 182.857-182.857c0-100.937-81.847-182.857-182.857-182.857z" />
<glyph unicode="&#xe601;" d="M804.571 36.571c-9.362 0-18.725 3.584-25.893 10.679l-585.143 585.143c-14.263 14.263-14.263 37.449 0 51.712s37.449 14.263 51.712 0l585.143-585.143c14.263-14.263 14.263-37.449 0-51.712-7.095-7.095-16.457-10.679-25.819-10.679zM219.429 36.571c-9.362 0-18.725 3.584-25.893 10.679-14.263 14.263-14.263 37.449 0 51.712l585.143 585.143c14.263 14.263 37.449 14.263 51.712 0s14.263-37.449 0-51.712l-585.143-585.143c-7.095-7.095-16.457-10.679-25.819-10.679z" />
<glyph unicode="&#xe602;" d="M365.714 731.428h292.571v-146.286h73.143v219.429h-438.857v-219.429h73.143zM73.143-146.286h877.714l73.143 512h-1024zM0 512h1024v-73.143h-1024v73.143z" />
<glyph unicode="&#xe603;" d="M731.429 512h-438.857c-80.75 0-146.286-65.536-146.286-146.286v-365.714c0-80.75 65.536-146.286 146.286-146.286h438.857c80.75 0 146.286 65.536 146.286 146.286v365.714c0 80.75-65.536 146.286-146.286 146.286zM365.714 219.428c-40.375 0-73.143 32.695-73.143 73.143 0 40.375 32.768 73.143 73.143 73.143s73.143-32.768 73.143-73.143c0-40.448-32.768-73.143-73.143-73.143zM658.286 219.428c-40.448 0-73.143 32.695-73.143 73.143 0 40.375 32.695 73.143 73.143 73.143s73.143-32.768 73.143-73.143c0-40.448-32.695-73.143-73.143-73.143zM365.714 585.143v146.286c0 40.375 32.768 73.143 73.143 73.143h146.286c40.448 0 73.143-32.768 73.143-73.143v-146.286h73.143v219.429c0 40.375-32.695 73.143-73.143 73.143h-292.571c-40.375 0-73.143-32.768-73.143-73.143v-219.429h73.143z" />
<glyph unicode="&#xe604;" d="M536.137-73.143h-384.146v877.495h341.431c59.392 0 110.665-7.168 153.819-21.358 43.081-14.19 75.41-33.499 97.207-57.783 39.351-45.129 58.953-96.183 58.953-153.161 0-68.608-22.162-119.589-66.414-153.161-15.141-11.703-25.6-19.017-31.451-21.943-5.851-2.999-16.384-7.753-31.451-14.409 54.491-11.776 97.792-36.279 129.902-73.435 32.256-37.23 48.347-83.529 48.347-138.752 0-61.001-20.919-114.981-62.757-161.938-48.494-54.345-132.901-81.554-253.44-81.554zM347.867 449.097h92.891c54.418 0 94.72 5.925 121.125 17.554 26.405 11.703 39.497 37.010 39.497 75.995 0 38.912-12.069 64.658-36.352 77.166-24.283 12.581-65.243 18.798-123.026 18.798h-94.135v-189.513zM347.867 92.599h134.217c56.027 0 98.158 6.875 126.245 20.553 28.014 13.897 42.057 41.106 42.057 81.701s-14.921 67.438-44.544 80.53c-29.769 12.727-77.239 19.31-142.482 19.31h-115.493v-202.094z" />
<glyph unicode="&#xe605;" d="M292.571 804.571v73.143h-146.286v-73.143h73.143zM804.571 804.571v73.143h-146.286v-73.143h73.143zM877.714 731.428h-877.714v-877.714h950.857v877.714h-73.143zM219.429-73.143h-146.286v146.286h146.286v-146.286zM219.429 146.285h-146.286v146.286h146.286v-146.286zM438.857-73.143h-146.286v146.286h146.286v-146.286zM438.857 146.285h-146.286v146.286h146.286v-146.286zM438.857 365.714h-146.286v146.286h146.286v-146.286zM658.286-73.143h-146.286v146.286h146.286v-146.286zM658.286 146.285h-146.286v146.286h146.286v-146.286zM658.286 365.714h-146.286v146.286h146.286v-146.286zM877.714-73.143h-146.286v146.286h146.286v-146.286zM877.714 146.285h-146.286v146.286h146.286v-146.286zM877.714 365.714h-146.286v146.286h146.286v-146.286z" />
<glyph unicode="&#xe606;" d="M585.143 292.571c0-121.187-98.242-219.429-219.429-219.429s-219.429 98.242-219.429 219.429c0 121.187 98.242 219.429 219.429 219.429s219.429-98.242 219.429-219.429zM438.857 658.285v73.143h-73.143v-73.143h-73.143v73.143h-146.286v-73.143h-146.286v-731.429h1024v731.429h-585.143zM365.714 0c-161.573 0-292.571 130.999-292.571 292.571s130.999 292.571 292.571 292.571 292.571-130.999 292.571-292.571-130.999-292.571-292.571-292.571zM950.857 438.857h-219.429v146.286h219.429v-146.286z" />
<glyph unicode="&#xe607;" d="M73.143 731.428h877.714v-146.286h-877.714v146.286zM73.143 146.285h877.714v-146.286h-877.714v146.286zM292.571 438.857h438.857v-146.286h-438.857v146.286z" />
<glyph unicode="&#xe608;" d="M0 804.571v-950.857h1024v950.857h-1024zM73.143 731.428h877.714v-804.571h-877.714v804.571zM438.857 585.143v-512h146.286v512h-146.286zM658.286 512v-438.857h146.286v438.857h-146.286zM219.429 438.857v-365.714h146.286v365.714h-146.286z" />
<glyph unicode="&#xe609;" d="M804.571 877.714h-585.143c-121.198 0-219.429-98.231-219.429-219.429v-585.143c0-121.198 98.231-219.429 219.429-219.429h585.143c121.198 0 219.429 98.231 219.429 219.429v585.143c0 121.198-98.231 219.429-219.429 219.429zM877.714 104.521c0-57.71-46.811-104.521-104.521-104.521h-522.386c-57.71 0-104.521 46.811-104.521 104.521v522.386c0 57.71 46.811 104.521 104.521 104.521h522.459c57.637 0 104.448-46.811 104.448-104.521v-522.386zM438.857 585.143h73.143v-292.571h-73.143v292.571zM438.857 365.714h219.429v-73.143h-219.429v73.143z" />
<glyph unicode="&#xe60a;" d="M555.959 329.143l158.793 158.866c22.309 22.235 22.309 58.222 0 80.457-22.162 22.235-58.149 22.235-80.457 0l-158.866-158.939-158.866 158.939c-22.235 22.235-58.149 22.235-80.457 0s-22.235-58.222 0-80.457l158.939-158.866-158.939-158.866c-22.235-22.309-22.235-58.295 0-80.53 11.118-11.118 25.673-16.603 40.229-16.603s29.184 5.486 40.229 16.677l158.866 158.793 158.793-158.866c11.191-11.118 25.746-16.603 40.375-16.603s29.038 5.486 40.155 16.677c22.309 22.235 22.309 58.222 0 80.53l-158.793 158.793z" />
<glyph unicode="&#xe60b;" d="M146.286 512l365.714-365.714 365.714 365.714z" />
<glyph unicode="&#xe60c;" d="M146.286 877.714c-81.042 0-146.286-65.243-146.286-146.286v-585.143c0-81.042 65.243-146.286 146.286-146.286h585.143v-146.286l146.286 146.286c81.042 0 146.286 65.243 146.286 146.286v585.143c0 81.042-65.243 146.286-146.286 146.286h-731.429zM146.286 804.571h731.429c40.521 0 73.143-32.622 73.143-73.143v-585.143c0-40.521-32.622-73.143-73.143-73.143h-731.429c-40.521 0-73.143 32.622-73.143 73.143v585.143c0 40.521 32.622 73.143 73.143 73.143zM292.571 512c-40.396 0-73.143-32.747-73.143-73.143s32.747-73.143 73.143-73.143c40.396 0 73.143 32.747 73.143 73.143s-32.747 73.143-73.143 73.143zM512 512c-40.396 0-73.143-32.747-73.143-73.143s32.747-73.143 73.143-73.143c40.396 0 73.143 32.747 73.143 73.143s-32.747 73.143-73.143 73.143zM731.429 512c-40.396 0-73.143-32.747-73.143-73.143s32.747-73.143 73.143-73.143c40.396 0 73.143 32.747 73.143 73.143s-32.747 73.143-73.143 73.143z" />
<glyph unicode="&#xe60d;" d="M950.857 804.571h73.143v-292.571h-73.143v292.571zM950.857 438.857h73.143v-292.571h-73.143v292.571zM0 731.428v-731.429c0-80.75 65.536-146.286 146.286-146.286v1024c-80.75 0-146.286-65.536-146.286-146.286zM731.429 877.714h-512v-1024h512c80.75 0 146.286 65.536 146.286 146.286v731.429c0 80.75-65.536 146.286-146.286 146.286z" />
<glyph unicode="&#xe60e;" d="M950.857 658.285h-877.714c-40.375 0-73.143-32.768-73.143-73.143v-512c0-40.448 32.768-73.143 73.143-73.143h877.714c40.448 0 73.143 32.695 73.143 73.143v512c0 40.375-32.695 73.143-73.143 73.143zM950.857 129.536c0-31.159-27.502-56.393-61.513-56.393h-754.761c-33.938 0-61.44 25.234-61.44 56.393v236.178h877.714v-236.178zM73.143 512v16.75c0 31.159 27.502 56.393 61.44 56.393h754.761c34.011 0 61.513-25.234 61.513-56.393v-16.75h-877.714zM292.571 219.428h365.714v-73.143h-365.714v73.143zM731.429 219.428h146.286v-73.143h-146.286v73.143z" />
<glyph unicode="&#xe60f;" d="M0 73.143c0-40.448 32.768-73.143 73.143-73.143h877.714c40.448 0 73.143 32.695 73.143 73.143v292.571h-1024v-292.571zM585.143 219.428h292.571v-73.143h-292.571v73.143zM365.714 219.428h146.286v-73.143h-146.286v73.143zM950.857 658.285h-877.714c-40.375 0-73.143-32.768-73.143-73.143v-73.143h1024v73.143c0 40.375-32.695 73.143-73.143 73.143z" />
<glyph unicode="&#xe610;" d="M146.286 877.714v-292.571h731.429v292.571h-731.429zM438.857 731.428h146.286v-73.143h-146.286v73.143zM146.286 512v-292.571h731.429v292.571h-731.429zM438.857 365.714h146.286v-73.143h-146.286v73.143zM146.286 146.285v-292.571h731.429v292.571h-731.429zM438.857 0h146.286v-73.143h-146.286v73.143z" />
<glyph unicode="&#xe611;" d="M0 804.571v-731.429h438.857v-73.143h-146.286v-73.143h438.857v73.143h-146.286v73.143h438.857v731.429h-1024zM73.143 731.428h877.714v-585.143h-877.714v585.143z" />
<glyph unicode="&#xe612;" d="M658.286 585.143v292.571h-292.571v-292.571h-219.429l365.714-365.714 365.714 365.714zM0 73.143h1024v-219.429h-1024v219.429z" />
<glyph unicode="&#xe613;" d="M877.714 585.143v146.286c0 80.75-65.536 146.286-146.286 146.286h-438.857c-80.75 0-146.286-65.536-146.286-146.286v-146.286h731.429zM146.286 512v-512c0-80.75 65.536-146.286 146.286-146.286h438.857c80.75 0 146.286 65.536 146.286 146.286v512h-731.429zM438.857 0h-146.286v365.714h146.286v-365.714zM731.429 0h-146.286v365.714h146.286v-365.714z" />
<glyph unicode="&#xe614;" d="M292.571 877.729v-146.286h-292.571v-73.143h877.714v73.143h-292.571v146.286h-292.571zM365.714 804.586h146.286v-73.143h-146.286v73.143zM0 585.157v-731.429h877.714v731.429h-877.714zM658.286 146.3h-146.286v-146.286h-146.286v146.286h-146.286v146.286h146.286v146.286h146.286v-146.286h146.286v-146.286z" />
<glyph unicode="&#xe615;" d="M146.286 804.571v-877.714h731.429v512h-292.571v365.714h-438.857zM658.286 804.571v-292.571h219.429l-219.429 292.571zM219.429 292.571h73.143v-73.143h-73.143v73.143zM365.714 292.571h438.857v-73.143h-438.857v73.143zM219.429 146.285h73.143v-73.143h-73.143v73.143zM365.714 146.285h438.857v-73.143h-438.857v73.143z" />
<glyph unicode="&#xe616;" d="M0 731.428h950.857v-146.286h-950.857v146.286zM512 438.857h438.857v-146.286h-438.857v146.286zM0 146.285h950.857v-146.286h-950.857v146.286zM0 438.857h438.857v-146.286h-438.857v146.286z" />
<glyph unicode="&#xe617;" d="M512 804.571l-512-512h146.286v-365.714h292.571v365.714h146.286v-365.714h292.571v365.714h146.286zM804.571 658.285h73.143v146.286h-146.286v-73.143h73.143z" />
<glyph unicode="&#xe618;" d="M0 877.714v-1024h1024v1024h-1024zM877.714 146.285h-731.429v585.143h731.429v-585.143zM804.571 585.143c0-40.396-32.747-73.143-73.143-73.143s-73.143 32.747-73.143 73.143c0 40.396 32.747 73.143 73.143 73.143s73.143-32.747 73.143-73.143zM658.286 219.428h146.286l-73.143 146.286-123.758-61.879-168.814 281.307-219.429-365.714h219.429z" />
<glyph unicode="&#xe619;" d="M438.857 877.714v-292.571h-146.286l219.429-219.429 219.429 219.429h-146.286v292.571h-146.286zM146.286 804.571l-146.286-512v-438.857h1024v438.857l-146.286 512h-146.286v-73.143h86.857l121.143-438.857h-281.143v-146.286h-292.571v146.286h-265.143l118.857 438.857h73.143v73.143h-146.286z" />
<glyph unicode="&#xe61a;" d="M438.857 731.428h585.143v-146.286h-585.143v146.286zM438.857 146.285h585.143v-146.286h-585.143v146.286zM585.143 438.857h438.857v-146.286h-438.857v146.286zM146.286 877.714v-438.857h-146.286v-146.286h146.286v-438.857h146.286v1024z" />
<glyph unicode="&#xe61b;" d="M581.266 53.394c-92.014-101.083-189.147-142.555-228.059-142.555-37.595 0-66.121 25.893-38.912 139.922l67.365 290.304c6.437 32.402 7.753 45.349 0 45.349-11.703 0-47.982-22.016-79.067-45.349l-17.993 36.279c93.257 86.821 189.147 137.362 235.886 137.362 37.595 0 44.032-50.542 25.893-128.293l-73.874-300.617c-8.997-37.595-5.12-50.469 3.877-50.469 11.703 0 45.422 18.139 83.017 51.785l21.87-33.719zM665.161 694.418c0-60.562-49.152-109.714-109.714-109.714s-109.714 49.152-109.714 109.714 49.152 109.714 109.714 109.714 109.714-49.152 109.714-109.714z" />
<glyph unicode="&#xe61c;" d="M638.537-22.821c0-68.188-55.277-123.465-123.465-123.465s-123.465 55.277-123.465 123.465c0 68.188 55.277 123.465 123.465 123.465s123.465-55.277 123.465-123.465zM515.072 427.447c-131.145 0-258.633-90.405-290.231-205.824-10.167-37.010 13.312-74.825 52.443-84.407 39.058-9.728 78.994 12.581 89.161 49.664 14.848 54.272 84.334 101.961 148.626 101.961 62.171 0 133.12-49.006 148.919-102.985 8.997-30.866 38.473-50.834 70.437-50.834 6.51 0 13.239 0.805 19.675 2.56 38.912 10.24 61.733 48.494 50.907 85.358-33.646 114.615-160.914 204.507-289.938 204.507zM1024.512 405.869c-54.857 197.339-273.847 346.112-509.44 346.112-243.127 0-457.435-146.066-509.659-347.355-10.167-39.131 13.312-78.994 52.443-89.161 39.278-10.24 79.067 13.312 89.161 52.443 35.182 135.607 193.39 237.787 368.055 237.787 169.326 0 331.191-105.033 368.494-239.031 8.997-32.329 38.4-53.541 70.437-53.541 6.437 0 13.166 0.878 19.602 2.706 38.912 10.898 61.586 51.127 50.907 90.039z" />
<glyph unicode="&#xe61d;" d="M0 219.428v-146.286h1024v146.286h-365.714v-73.143h-292.571v73.143h-365.714zM146.286 731.428v-512h731.429v512h-731.429zM219.429 658.285h585.143v-365.714h-585.143v365.714z" />
<glyph unicode="&#xe61e;" d="M0 731.428v-731.429h73.143v658.286h804.571v73.143h-877.714zM146.286 585.143v-658.286h877.714v658.286h-877.714zM219.429 438.857h292.571v-365.714h-292.571v365.714zM658.286 438.857h292.571v-73.143h-292.571v73.143zM658.286 292.571h292.571v-73.143h-292.571v73.143zM658.286 146.285h292.571v-73.143h-292.571v73.143z" />
<glyph unicode="&#xe61f;" d="M73.143 804.571v-292.571h877.714v292.571h-877.714zM73.143 438.857v-512h512v512h-512zM658.286 438.857v-512h292.571v512h-292.571z" />
<glyph unicode="&#xe620;" d="M0 804.571v-804.571h1024v804.571h-1024zM73.143 731.428h877.714v-658.286h-877.714v658.286zM146.286 585.143h292.571v-365.714h-292.571v365.714zM585.143 585.143h292.571v-73.143h-292.571v73.143zM585.143 438.857h292.571v-73.143h-292.571v73.143zM585.143 292.571h292.571v-73.143h-292.571v73.143z" />
<glyph unicode="&#xe621;" d="M73.143 731.428v-292.571h365.714v292.571h-365.714zM585.143 731.428v-292.571h365.714v292.571h-365.714zM73.143 365.714v-73.143h365.714v73.143h-365.714zM585.143 365.714v-73.143h365.714v73.143h-365.714zM73.143 219.428v-73.143h365.714v73.143h-365.714zM585.143 219.428v-73.143h365.714v73.143h-365.714zM73.143 73.143v-73.143h365.714v73.143h-365.714zM585.143 73.143v-73.143h365.714v73.143h-365.714z" />
<glyph unicode="&#xe622;" d="M73.143 731.428h877.714v-146.286h-877.714v146.286zM73.143 146.285h877.714v-146.286h-877.714v146.286zM73.143 438.857h512v-146.286h-512v146.286z" />
<glyph unicode="&#xe623;" d="M694.857 877.714c-92.965 0-174.592-49.883-219.429-124.27-44.837 74.386-126.464 124.27-219.429 124.27-141.166 0-256-114.834-256-256 0-353.28 139.557-538.843 466.578-620.617l8.85-2.194 8.85 2.194c296.521 74.094 466.578 300.325 466.578 620.617 0 141.166-114.834 256-256 256zM475.429 74.313c-289.353 74.825-402.286 229.010-402.286 547.401 0 100.791 82.066 182.857 182.857 182.857s219.429-82.066 219.429-182.857c0 100.791 118.565 182.857 219.429 182.857s182.857-82.066 182.857-182.857c0-284.965-142.775-479.013-402.286-547.401z" />
<glyph unicode="&#xe624;" d="M731.429 731.428c-121.125 0-219.429-98.231-219.429-219.429 0 121.198-98.231 219.429-219.429 219.429s-219.429-98.231-219.429-219.429c0-360.009 146.286-512 438.857-585.143 292.571 73.143 438.857 292.571 438.857 585.143 0 121.198-98.304 219.429-219.429 219.429z" />
<glyph unicode="&#xe625;" d="M438.857 877.714c-81.042 0-146.286-65.243-146.286-146.286v-292.571h-146.286v-585.143h658.286v585.143h-146.286v292.571c0 81.042-65.243 146.286-146.286 146.286h-73.143zM438.857 804.571h73.143c40.522 0 73.143-32.621 73.143-73.143v-292.571h-219.429v292.571c0 40.522 32.621 73.143 73.143 73.143zM438.857 292.571h73.143v-146.286h-73.143v146.286z" />
<glyph unicode="&#xe626;" d="M0 804.586v-148.553l512-320 512 320v148.553h-1024zM0 569.139v-495.982h1024v495.982l-512-320-18.286 11.41-493.714 308.59z" />
<glyph unicode="&#xe627;" d="M512 877.714c-201.978 0-365.714-163.736-365.714-365.714 0-12.624 1.037-24.277 2.286-36.571 0.579-8.014 0.71-6.724 2.286-18.286 1.295-8.475 2.705-16.87 4.571-25.143 20.185-113.406 91.925-335.352 356.571-578.286 264.646 242.935 336.386 464.88 356.571 578.286 8.688 48.81 9.143 80 9.143 80 0 201.978-163.736 365.714-365.714 365.714zM512 731.428c121.187 0 219.429-98.242 219.429-219.429s-98.242-219.429-219.429-219.429c-121.187 0-219.429 98.242-219.429 219.429s98.242 219.429 219.429 219.429z" />
<glyph unicode="&#xe628;" d="M256 329.143c0 10.825 4.681 21.138 13.166 28.087l438.857 365.714c15.506 12.946 38.619 10.825 51.493-4.681 12.946-15.579 10.825-38.619-4.681-51.493l-405.138-337.627 405.138-337.627c15.579-12.946 17.481-35.913 4.681-51.493-12.946-15.506-35.986-17.554-51.566-4.535l-438.857 365.714c-8.411 6.802-13.093 17.115-13.093 27.941z" />
<glyph unicode="&#xe629;" d="M291.84 317.732c0-16.091 5.851-32.11 17.554-44.763l237.714-256c24.722-26.624 66.414-28.233 93.038-3.511 26.77 24.722 28.16 66.414 3.511 93.038l-196.096 211.237 196.169 211.237c24.576 26.551 23.113 68.315-3.511 92.965-26.624 24.795-68.315 23.186-93.038-3.438l-237.714-256c-11.776-12.654-17.627-28.745-17.627-44.763z" />
<glyph unicode="&#xe62a;" d="M754.834 301.129l-438.784-365.714c-15.579-13.019-38.619-10.898-51.566 4.535-12.8 15.579-10.825 38.546 4.681 51.493l405.138 337.701-405.065 337.627c-15.579 12.873-17.701 35.913-4.754 51.493 12.873 15.506 35.986 17.627 51.493 4.681l438.857-365.714c8.485-6.949 13.166-17.262 13.166-28.087s-4.681-21.138-13.166-28.014z" />
<glyph unicode="&#xe62b;" d="M539.941 572.050l365.714-438.784c13.019-15.579 10.898-38.619-4.535-51.566-15.579-12.8-38.546-10.825-51.493 4.681l-337.627 405.138-337.627-405.065c-12.873-15.579-35.913-17.627-51.493-4.681-15.506 12.873-17.627 35.986-4.608 51.493l365.714 438.857c6.802 8.411 17.115 13.093 28.014 13.093s21.138-4.681 27.941-13.166z" />
<glyph unicode="&#xe62c;" d="M476.599 575.561c-16.091 0-32.183-5.851-44.763-17.554l-256-237.714c-26.697-24.795-28.233-66.414-3.511-93.111 24.722-26.77 66.414-28.087 93.038-3.438l211.237 196.096 211.237-196.169c26.551-24.576 68.315-23.113 92.965 3.511 24.795 26.624 23.186 68.315-3.438 93.038l-256 237.714c-12.581 11.776-28.745 17.627-44.763 17.627z" />
<glyph unicode="&#xe62d;" d="M0 877.714v-146.286h146.286v146.286h-146.286zM292.571 877.714v-146.286h731.429v146.286h-731.429zM0 585.143v-146.286h146.286v146.286h-146.286zM292.571 585.143v-146.286h731.429v146.286h-731.429zM292.571 292.571v-146.286h731.429v146.286h-731.429zM292.571 0v-146.286h731.429v146.286h-731.429z" />
<glyph unicode="&#xe62e;" d="M73.143 804.571h877.714v-146.286h-877.714v146.286zM73.143 438.857h877.714v-146.286h-877.714v146.286zM73.143 73.143h877.714v-146.286h-877.714v146.286z" />
<glyph unicode="&#xe62f;" d="M512 146.285c-10.825 0-21.138 4.754-28.087 13.166l-365.714 438.857c-12.946 15.506-10.825 38.619 4.681 51.493 15.579 12.946 38.619 10.825 51.493-4.681l337.627-405.138 337.627 405.138c12.946 15.506 35.986 17.481 51.493 4.681 15.506-12.946 17.554-35.986 4.608-51.566l-365.714-438.857c-6.875-8.338-17.189-13.093-28.014-13.093z" />
<glyph unicode="&#xe630;" d="M476.599 206.116c-16.091 0-32.183 5.851-44.763 17.554l-256 237.714c-26.697 24.795-28.233 66.487-3.511 93.111 24.722 26.77 66.414 28.16 93.038 3.438l211.237-196.096 211.237 196.096c26.551 24.649 68.315 23.186 92.965-3.438 24.795-26.624 23.186-68.315-3.438-93.038l-256-237.714c-12.581-11.776-28.745-17.627-44.763-17.627z" />
<glyph unicode="&#xe631;" d="M661.285 317.732c0-16.091-5.851-32.11-17.554-44.763l-237.714-256c-24.722-26.624-66.414-28.233-93.038-3.511-26.77 24.722-28.16 66.414-3.511 93.038l196.169 211.237-196.242 211.163c-24.503 26.624-23.113 68.315 3.511 93.038 26.697 24.795 68.315 23.186 93.038-3.438l237.714-256c11.776-12.654 17.627-28.745 17.627-44.763z" />
<glyph unicode="&#xe632;" d="M877.714 146.285l-365.714 365.714-365.714-365.714z" />
<glyph unicode="&#xe633;" d="M438.857 292.571v-365.714l-365.714 365.714zM585.143 438.857v365.787l365.714-365.787z" />
<glyph unicode="&#xe634;" d="M219.429 73.143v365.714l365.714-365.714zM804.571 658.285v-365.641l-365.714 365.641z" />
<glyph unicode="&#xe635;" d="M219.429 438.857h585.143v-146.286h-585.143v146.286z" />
<glyph unicode="&#xe636;" d="M877.714 731.428h-731.429c-80.75 0-146.286-65.536-146.286-146.286v-438.857c0-80.75 65.536-146.286 146.286-146.286h731.429c80.75 0 146.286 65.536 146.286 146.286v438.857c0 80.75-65.536 146.286-146.286 146.286zM365.714 146.285v438.857l365.714-219.429-365.714-219.429z" />
<glyph unicode="&#xe637;" d="M438.857 804.571h585.143v-146.286h-585.143v146.286zM438.857 585.143h512v-146.286h-512v146.286zM438.857 292.571h585.143v-146.286h-585.143v146.286zM438.857 73.143h438.857v-146.286h-438.857v146.286zM19.602 17.627c11.337 21.431 33.499 40.96 66.487 58.514l49.152 25.966c22.016 11.776 37.449 21.797 46.299 30.135 13.97 13.019 20.992 27.867 20.992 44.617 0 19.675-6.363 35.109-19.163 46.738-12.8 11.483-29.915 17.262-51.2 17.262-31.598 0-53.467-10.971-65.536-32.987-6.51-11.703-10.094-28.087-10.752-48.933h-46.885c0.439 29.33 6.363 53.175 17.627 71.607 19.968 32.622 55.223 48.859 105.765 48.859 41.984 0 72.704-10.459 92.014-31.232 19.383-20.846 29.038-44.032 29.038-69.486 0-26.917-10.313-49.957-30.939-68.974-11.995-11.118-33.426-24.576-64.293-40.448l-35.035-17.774c-16.75-8.485-29.915-16.603-39.424-24.21-17.115-13.678-27.867-28.745-32.256-45.275h200.265v-39.936h-251.758c1.682 28.965 8.192 54.126 19.602 75.557zM0 699.392v32.622c36.937 2.999 62.683 8.046 77.312 15.067 14.555 7.022 25.454 23.625 32.622 49.883h40.375v-337.774h-54.565v240.201h-95.744z" />
<glyph unicode="&#xe638;" d="M0 731.428h585.143v-146.286h-585.143v146.286zM0 146.285h585.143v-146.286h-585.143v146.286zM0 438.857h438.857v-146.286h-438.857v146.286zM877.714 438.857v438.857h-146.286v-1024h146.286v438.857h146.286v146.286z" />
<glyph unicode="&#xe639;" d="M219.429 877.714v-1024h585.143v1024h-585.143zM292.571 804.571h438.857v-731.429h-438.857v731.429zM438.857 0h146.286v-73.143h-146.286v73.143z" />
<glyph unicode="&#xe63a;" d="M512 877.714c-282.77 0-512-229.23-512-512s229.23-512 512-512 512 229.23 512 512-229.23 512-512 512zM804.571 292.571h-585.143v146.286h585.143v-146.286z" />
<glyph unicode="&#xe63b;" d="M438.857 658.285v-219.429h-219.429v-146.286h219.429v-219.429h146.286v219.429h219.429v146.286h-219.429v219.429h-146.286z" />
<glyph unicode="&#xe63c;" d="M504.539 365.714h14.848c36.352 0 65.755 29.403 65.755 65.682v307.493c0 36.279-29.403 65.682-65.682 65.682h-14.921c-36.279 0-65.682-29.403-65.682-65.682v-307.419c0-36.352 29.403-65.755 65.682-65.755zM731.429 672.183v-187.977c44.983-51.419 73.143-117.979 73.143-191.634 0-161.573-130.999-292.571-292.571-292.571s-292.571 130.999-292.571 292.571c0 73.655 28.16 140.215 73.143 191.634v187.977c-131.072-75.849-219.429-217.307-219.429-379.611 0-242.322 196.535-438.857 438.857-438.857s438.857 196.535 438.857 438.857c0 162.304-88.357 303.762-219.429 379.611z" />
<glyph unicode="&#xe63d;" d="M219.429 877.714v-365.714h585.143v365.714h-585.143zM292.571 804.571h438.857v-73.143h-438.857v73.143zM292.571 658.285h438.857v-73.143h-438.857v73.143zM0 438.857v-512h146.286v146.286h731.429v-146.286h146.286v512h-1024zM731.429 292.571h73.143v-73.143h-73.143v73.143zM877.714 292.571h73.143v-73.143h-73.143v73.143zM219.429 0v-146.286h585.143v146.286h-585.143z" />
<glyph unicode="&#xe63e;" d="M438.857 731.428c-201.978 0-365.714-163.736-365.714-365.714s163.736-365.714 365.714-365.714c176.731 0 324.756 125.922 358.857 292.571h-105.143c-32.189-110.175-133.232-192-253.714-192-146.281 0-265.143 118.862-265.143 265.143s118.862 265.143 265.143 265.143c91.479 0 171.993-47.921 219.429-118.857l-146.286-146.286h365.714v365.714l-146.286-146.286c-66.884 89.074-172.86 146.286-292.571 146.286z" />
<glyph unicode="&#xe63f;" d="M0 877.714h146.286v-1024h-146.286v1024zM0 0h1024v-146.286h-1024v146.286zM0 877.714h1024v-146.286h-1024v146.286zM877.714 877.714h146.286v-1024h-146.286v1024zM585.143 292.571h292.571v-292.571h-292.571v292.571zM292.571 585.143h73.143v-585.143h-73.143v585.143zM292.571 585.143h585.143v-73.143h-585.143v73.143z" />
<glyph unicode="&#xe640;" d="M73.143 731.428h877.714v-146.286h-877.714v146.286zM73.143 146.285h877.714v-146.286h-877.714v146.286zM438.857 438.857h512v-146.286h-512v146.286z" />
<glyph unicode="&#xe641;" d="M731.429 804.571v-365.714h-585.143v365.714h-146.286v-950.857h1024v658.286c0 161.573-130.999 292.571-292.571 292.571zM219.429 731.428h146.286v-219.429h-146.286v219.429z" />
<glyph unicode="&#xe642;" d="M438.857 877.714c-242.374 0-438.857-196.483-438.857-438.857s196.483-438.857 438.857-438.857c242.374 0 438.857 196.483 438.857 438.857s-196.483 438.857-438.857 438.857zM438.857 804.571c201.978 0 365.714-163.736 365.714-365.714s-163.736-365.714-365.714-365.714c-201.978 0-365.714 163.736-365.714 365.714s163.736 365.714 365.714 365.714zM747.602 23.925l103.832 103.046 154.569-155.748-103.832-103.046-154.569 155.748z" />
<glyph unicode="&#xe643;" d="M475.429 877.714l-256-219.429h146.286v-292.571h219.429v292.571h146.286l-256 219.429zM0 438.857v-512h950.857v512h-146.286v-219.429h-219.429v-146.286h-219.429v146.286h-219.429v219.429h-146.286z" />
<glyph unicode="&#xe644;" d="M950.857 292.571v146.286h-104.814c-8.997 40.155-24.869 77.605-46.519 111.031l74.533 74.459-103.497 103.424-75.118-75.191c-33.353 21.138-70.363 37.010-110.299 45.568v106.423h-146.286v-106.423c-39.936-8.558-76.946-24.43-110.299-45.568l-75.191 75.191-103.424-103.424 74.459-74.533c-21.65-33.353-37.449-70.802-46.446-110.958h-104.814v-146.286h103.351c8.485-40.887 24.649-78.629 46.080-112.786l-72.631-72.631 103.424-103.497 71.168 71.241c34.304-22.674 72.85-39.278 114.249-48.347v-99.694h146.286v99.621c41.472 9.070 80.018 25.746 114.249 48.347l71.168-71.241 103.497 103.497-72.631 72.631c21.504 34.231 37.669 71.973 46.153 112.859h103.351zM731.429 365.714c0-121.125-98.304-219.429-219.429-219.429-121.198 0-219.429 98.304-219.429 219.429 0 121.198 98.231 219.429 219.429 219.429 121.125 0 219.429-98.231 219.429-219.429z" />
<glyph unicode="&#xe645;" d="M946.030 303.396c2.779 20.48 4.827 41.106 4.827 62.318s-2.048 41.838-4.827 62.318l-99.182 22.382c-8.265 32.841-21.211 63.781-38.181 92.16l54.345 85.943c-25.161 33.426-54.711 62.976-88.137 88.064l-86.016-54.272c-28.453 16.896-59.392 29.842-92.16 38.181l-22.382 99.182c-20.48 2.926-41.106 4.901-62.318 4.901s-41.838-1.975-62.318-4.901l-22.382-99.182c-32.841-8.338-63.781-21.211-92.16-38.181l-85.943 54.272c-33.353-25.088-62.976-54.711-88.064-88.064l54.272-85.943c-16.969-28.379-29.842-59.392-38.181-92.16l-99.182-22.382c-2.926-20.48-4.901-41.106-4.901-62.318s1.975-41.838 4.901-62.318l99.182-22.455c8.338-32.768 21.285-63.707 38.181-92.16l-54.272-85.943c25.088-33.426 54.711-62.976 88.064-88.137l85.943 54.345c28.379-16.969 59.319-29.915 92.16-38.181l22.382-99.182c20.48-2.779 41.106-4.827 62.318-4.827s41.838 2.048 62.318 4.827l22.455 99.255c32.768 8.192 63.707 21.138 92.233 38.107l85.87-54.345c33.426 25.161 62.976 54.711 88.137 88.137l-54.345 85.87c16.969 28.526 29.915 59.392 38.107 92.233l99.255 22.455zM512 188.050c-98.085 0-177.591 79.506-177.591 177.664 0 98.085 79.506 177.591 177.591 177.591 98.158 0 177.664-79.506 177.664-177.591 0-98.158-79.506-177.664-177.664-177.664z" />
<glyph unicode="&#xe646;" d="M867.913 618.203l57.856 57.856-103.497 103.424-58.222-58.222c-52.443 37.083-113.225 62.683-178.907 73.874v82.578h-146.286v-82.578c-65.682-11.191-126.464-36.864-178.907-73.947l-58.295 58.295-103.424-103.424 57.856-57.856c-37.742-52.443-64.219-113.371-75.849-179.346h-80.238v-146.286h79.36c10.898-66.706 36.718-128.512 74.386-181.687l-55.442-55.442 103.424-103.497 55.077 55.077c53.175-38.254 115.054-64.878 182.126-76.288v-77.019h146.286v77.019c66.999 11.41 128.951 38.034 182.053 76.288l55.077-55.077 103.497 103.497-55.515 55.442c37.522 53.175 63.415 114.981 74.313 181.687h79.36v146.286h-80.238c-11.63 65.975-38.034 126.903-75.849 179.346zM512 70.363c-160.914 0-292.571 131.657-292.571 292.571s131.657 292.571 292.571 292.571 292.571-131.657 292.571-292.571-131.657-292.571-292.571-292.571z" />
<glyph unicode="&#xe647;" d="M0 877.714v-73.143h146.286v-731.429h804.571v73.143h-731.429v146.286h804.571v438.857h-73.143v-365.714h-731.429v512h-219.429zM292.571 731.428v-292.571h146.286v292.571h-146.286zM512 731.428v-292.571h146.286v292.571h-146.286zM731.429 731.428v-292.571h146.286v292.571h-146.286zM292.571 0c-40.396 0-73.143-32.747-73.143-73.143s32.747-73.143 73.143-73.143c40.396 0 73.143 32.747 73.143 73.143s-32.747 73.143-73.143 73.143zM804.571 0c-40.396 0-73.143-32.747-73.143-73.143s32.747-73.143 73.143-73.143c40.396 0 73.143 32.747 73.143 73.143s-32.747 73.143-73.143 73.143z" />
<glyph unicode="&#xe648;" d="M877.714 877.714h-731.429c-81.042 0-146.286-65.243-146.286-146.286v-585.143c0-80.969 65.243-146.286 146.286-146.286h585.143v-146.286l146.286 146.286c80.969 0 146.286 65.317 146.286 146.286v585.143c0 81.042-65.317 146.286-146.286 146.286zM365.714 365.714h-146.286v146.286h146.286v-146.286zM585.143 365.714h-146.286v146.286h146.286v-146.286zM804.571 365.714h-146.286v146.286h146.286v-146.286z" />
<glyph unicode="&#xe649;" d="M0 146.285v-292.571h1024v292.571h-438.857v-73.143h-146.286v73.143h-438.857zM0 292.571h1024v-73.143h-1024v73.143zM0 438.857h1024v-73.143h-1024v73.143zM438.857 877.714v-146.286h-146.286l219.429-219.429 219.429 219.429h-146.286v146.286h-146.286z" />
<glyph unicode="&#xe64a;" d="M292.571 804.571v-219.429h73.143v146.286h292.571v-146.286h73.143v219.429h-438.857zM0 512v-219.429h292.571v-73.143h-292.571v-365.714h1024v365.714h-292.571v73.143h292.571v219.429h-1024zM365.714 292.571h292.571v-73.143h-73.143v-73.143h-146.286v73.143h-73.143v73.143z" />
<glyph unicode="&#xe64b;" d="M0 804.571v-804.571h950.857v804.571h-950.857zM73.143 585.143h219.429v-219.429h-219.429v219.429zM365.714 585.143h219.429v-219.429h-219.429v219.429zM658.286 585.143h219.429v-219.429h-219.429v219.429zM73.143 292.571h219.429v-219.429h-219.429v219.429zM365.714 292.571h219.429v-219.429h-219.429v219.429zM658.286 292.571h219.429v-219.429h-219.429v219.429z" />
<glyph unicode="&#xe64c;" d="M0 731.428v-804.571h1024v804.571h-1024zM73.143 658.285h731.429v-658.286h-731.429v658.286zM877.714 365.714h73.143v-73.143h-73.143v73.143z" />
<glyph unicode="&#xe64d;" d="M0 804.571v-877.714h292.571v877.714h-292.571zM365.714 804.571v-877.714h658.286v877.714h-658.286zM438.857 658.285h512v-219.429h-512v219.429zM438.857 365.714h73.143v-73.143h-73.143v73.143zM585.143 365.714h73.143v-73.143h-73.143v73.143zM731.429 365.714h73.143v-73.143h-73.143v73.143zM877.714 365.714h73.143v-73.143h-73.143v73.143zM438.857 219.428h73.143v-73.143h-73.143v73.143zM585.143 219.428h73.143v-73.143h-73.143v73.143zM731.429 219.428h73.143v-73.143h-73.143v73.143zM877.714 219.428h73.143v-73.143h-73.143v73.143zM585.143 73.143h73.143v-73.143h-73.143v73.143zM731.429 73.143h73.143v-73.143h-73.143v73.143z" />
<glyph unicode="&#xe64e;" d="M292.571 731.428v-146.286h219.429v-438.857h146.286v438.857h219.429v146.286zM146.286 0v731.429h-146.286v-877.714h1024v146.286z" />
<glyph unicode="&#xe64f;" d="M365.714 731.428v-73.143h-292.571v-73.143h804.571v73.143h-292.571v73.143h-219.429zM146.286 512v-585.143h-73.143v-73.143h804.571v73.143h-73.143v585.143h-658.286zM219.429 438.857h512v-512h-512v512zM292.571 365.714v-365.714h73.143v365.714h-73.143zM438.857 365.714v-365.714h73.143v365.714h-73.143zM585.143 365.714v-365.714h73.143v365.714h-73.143z" />
<glyph unicode="&#xe650;" d="M292.571 804.571v-146.286h-219.429v-73.143h804.571v73.143h-219.429v146.286h-365.714zM365.714 731.428h219.429v-73.143h-219.429v73.143zM146.286 512v-658.286h658.286v658.286h-658.286zM292.571 365.714h73.143v-365.714h-73.143v365.714zM438.857 365.714h73.143v-365.714h-73.143v365.714zM585.143 365.714h73.143v-365.714h-73.143v365.714z" />
<glyph unicode="&#xe651;" d="M0 804.571v-877.714h1024v877.714h-1024zM365.714 731.428h146.286v-146.286h-146.286v146.286zM585.143 731.428h146.286v-146.286h-146.286v146.286zM804.571 731.428h146.286v-146.286h-146.286v146.286zM73.143 512h877.714v-512h-877.714v512z" />
<glyph unicode="&#xe652;" d="M0 73.143h950.857v-146.286h-950.857v146.286zM658.286 804.571v-365.714c0-101.010-81.847-146.286-182.857-146.286s-182.857 45.275-182.857 146.286v365.714h-146.286v-365.714c0-181.687 147.456-292.571 329.143-292.571s329.143 110.885 329.143 292.571v365.714h-146.286z" />
<glyph unicode="&#xe653;" d="M219.429 731.428h731.429v-146.286h-731.429v146.286zM219.429 438.857h585.143v-146.286h-585.143v146.286zM219.429 146.285h731.429v-146.286h-731.429v146.286zM0 731.428h146.286v-146.286h-146.286v146.286zM0 438.857h146.286v-146.286h-146.286v146.286zM0 146.285h146.286v-146.286h-146.286v146.286z" />
<glyph unicode="&#xe654;" d="M0 877.714v-1024h950.857v1024h-950.857zM73.143 804.571h73.143v-73.143h-73.143v73.143zM219.429 804.571h73.143v-73.143h-73.143v73.143zM365.714 804.571h73.143v-73.143h-73.143v73.143zM512 804.571h73.143v-73.143h-73.143v73.143zM658.286 804.571h73.143v-73.143h-73.143v73.143zM804.571 804.571h73.143v-73.143h-73.143v73.143zM73.143 658.285h804.571v-585.143h-804.571v585.143zM365.714 512v-292.571l292.571 146.286-292.571 146.286zM73.143 0h73.143v-73.143h-73.143v73.143zM219.429 0h73.143v-73.143h-73.143v73.143zM365.714 0h73.143v-73.143h-73.143v73.143zM512 0h73.143v-73.143h-73.143v73.143zM658.286 0h73.143v-73.143h-73.143v73.143zM804.571 0h73.143v-73.143h-73.143v73.143z" />
<glyph unicode="&#xe655;" d="M365.714 329.143c0-60.594-49.121-109.714-109.714-109.714s-109.714 49.121-109.714 109.714c0 60.594 49.121 109.714 109.714 109.714s109.714-49.121 109.714-109.714zM804.571 329.143c0-60.594-49.121-109.714-109.714-109.714s-109.714 49.121-109.714 109.714c0 60.594 49.121 109.714 109.714 109.714s109.714-49.121 109.714-109.714z" />
<glyph unicode="&#xe656;" d="M512 877.714c-282.77 0-512-229.23-512-512s229.23-512 512-512 512 229.23 512 512-229.23 512-512 512zM804.571 292.571h-219.429v-219.429h-146.286v219.429h-219.429v146.286h219.429v219.429h146.286v-219.429h219.429v-146.286z" />
<glyph unicode="&#xe657;" d="M146.286 804.571h146.286v-73.143h-146.286v73.143zM292.571 146.285v292.571h-146.286v-438.857h804.571v146.286zM658.286 219.428h146.286v438.857h-804.571v-146.286h658.286zM658.286-73.143h146.286v-73.143h-146.286v73.143z" />
<glyph unicode="&#xe658;" d="M73.143 658.285v73.143c0 40.375 32.768 73.143 73.143 73.143h292.571c40.375 0 73.143-32.768 73.143-73.143v-73.143zM1024 0c0-40.448-32.695-73.143-73.143-73.143h-877.714c-40.375 0-73.143 32.695-73.143 73.143v512c0 40.375 32.768 73.143 73.143 73.143h877.714c40.448 0 73.143-32.768 73.143-73.143v-512z" />
<glyph unicode="&#xe659;" d="M877.714 658.285h-731.429c-80.75 0-146.286-65.536-146.286-146.286v-365.714c0-80.75 65.536-146.286 146.286-146.286h731.429c80.75 0 146.286 65.536 146.286 146.286v365.714c0 80.75-65.536 146.286-146.286 146.286zM585.143 804.571h-365.714c-40.375 0-73.143-32.768-73.143-73.143h512c0 40.375-32.695 73.143-73.143 73.143z" />
<glyph unicode="&#xe65a;" d="M512 877.714c-282.77 0-512-229.23-512-512s229.23-512 512-512 512 229.23 512 512-229.23 512-512 512zM512 0c-202.021 0-365.714 163.694-365.714 365.714s163.694 365.714 365.714 365.714 365.714-163.694 365.714-365.714-163.694-365.714-365.714-365.714zM292.571 365.714c0-121.125 98.231-219.429 219.429-219.429v438.857c-121.198 0-219.429-98.231-219.429-219.429z" />
<glyph unicode="&#xe65b;" d="M987.429 512h-36.571v-219.429h36.571c20.187 0 36.571 16.384 36.571 36.571v146.286c0 20.187-16.384 36.571-36.571 36.571zM731.429 658.285h-585.143c-80.75 0-146.286-65.536-146.286-146.286v-219.429c0-80.75 65.536-146.286 146.286-146.286h585.143c80.75 0 146.286 65.536 146.286 146.286v219.429c0 80.75-65.536 146.286-146.286 146.286zM292.571 292.571h-73.143c-40.375 0-73.143 32.768-73.143 73.143v73.143c0 40.375 32.768 73.143 73.143 73.143h73.143v-219.429z" />
<glyph unicode="&#xe65c;" d="M987.429 512h-36.571v-219.429h36.571c20.187 0 36.571 16.384 36.571 36.571v146.286c0 20.187-16.384 36.571-36.571 36.571zM731.429 658.285h-585.143c-80.75 0-146.286-65.536-146.286-146.286v-219.429c0-80.75 65.536-146.286 146.286-146.286h585.143c80.75 0 146.286 65.536 146.286 146.286v219.429c0 80.75-65.536 146.286-146.286 146.286zM658.286 292.571h-438.857c-40.375 0-73.143 32.768-73.143 73.143v73.143c0 40.375 32.768 73.143 73.143 73.143h438.857v-219.429z" />
<glyph unicode="&#xe65d;" d="M365.714 877.714h292.571v-146.286h-292.571v146.286zM877.714 804.571h-146.286v-146.286h-438.857v146.286h-146.286c-40.375 0-73.143-32.768-73.143-73.143v-804.571c0-40.448 32.768-73.143 73.143-73.143h731.429c40.448 0 73.143 32.695 73.143 73.143v804.571c0 40.375-32.695 73.143-73.143 73.143zM365.714 73.143h-73.143v73.143h73.143v-73.143zM365.714 219.428h-73.143v73.143h73.143v-73.143zM365.714 365.714h-73.143v73.143h73.143v-73.143zM731.429 73.143h-292.571v73.143h292.571v-73.143zM731.429 219.428h-292.571v73.143h292.571v-73.143zM731.429 365.714h-292.571v73.143h292.571v-73.143zM365.714 804.571h292.571v-73.143h-292.571v73.143z" />
<glyph unicode="&#xe65e;" d="M877.714 146.285h-731.429c-40.375 0-73.143 32.695-73.143 73.143v-146.286c0-80.75 65.536-146.286 146.286-146.286h585.143c80.75 0 146.286 65.536 146.286 146.286v146.286c0-40.448-32.695-73.143-73.143-73.143zM804.571 0h-219.429v73.143h219.429v-73.143zM804.571 804.571h-585.143c-80.75 0-146.286-65.536-146.286-146.286v-365.714c0-40.448 32.768-73.143 73.143-73.143h731.429c40.448 0 73.143 32.695 73.143 73.143v365.714c0 80.75-65.536 146.286-146.286 146.286z" />
<glyph unicode="&#xe65f;" d="M146.286-73.143v-73.143h731.429v292.571h-731.429v-219.429zM585.143 73.143h146.286v-73.143h-146.286v73.143zM438.857 73.143h73.143v-73.143h-73.143v73.143zM804.571 877.714h-585.143c-40.448 0-73.143-32.768-73.143-73.143v-219.429h731.429v219.429c0 40.375-32.695 73.143-73.143 73.143zM731.429 658.285h-73.143v73.143h73.143v-73.143zM146.286 219.428h731.429v292.571h-731.429v-292.571zM658.286 365.714h73.143v-73.143h-73.143v73.143zM512 365.714h73.143v-73.143h-73.143v73.143z" />
<glyph unicode="&#xe660;" d="M73.143 731.428h877.714v-146.286h-877.714v146.286zM73.143 146.285h877.714v-146.286h-877.714v146.286zM73.143 438.857h877.714v-146.286h-877.714v146.286z" />
</font>
</defs>
</svg>
